<?xml version="1.0" standalone="no"?>
<!DOCTYPE svg PUBLIC "-//W3C//DTD SVG 1.1//EN" "http://www.w3.org/Graphics/SVG/1.1/DTD/svg11.dtd" >
<svg xmlns="http://www.w3.org/2000/svg">
<defs>
  <font id="icons" horiz-adv-x="1792">
    <font-face font-family="icons"
      units-per-em="1792" ascent="1536"
      descent="256" />
    <missing-glyph horiz-adv-x="0" />
    <glyph glyph-name="arrow-left"
      unicode="&#xEA01;"
      horiz-adv-x="1400" d="M3 640L551.3 5.4000000000001L655.5999999999999 127.3000000000002L287 553.9H1397V726.1H287.3L655.9000000000001 1152.8L551.6 1274.6L3.3 640L3 640z" />
    <glyph glyph-name="arrow-right"
      unicode="&#xEA02;"
      horiz-adv-x="1400" d="M1397 640L848.7 1274.6L744.4 1152.7L1113 726.1H3V554H1112.7L744.1 127.3L848.4 5.3999999999999L1396.7 640L1397 640z" />
    <glyph glyph-name="chevron-left-double-medium"
      unicode="&#xEA03;"
      horiz-adv-x="1230" d="M509.7 642.5C509.7 663.1 516.9 683.2 530.1 699L972 1228.5C1003.2 1266 1058.9 1271.2 1096.4 1240S1139.1000000000001 1153.1 1107.9 1115.6L1107.9 1115.6L712.5 642.5L1093.7 169.4000000000001C1126.3 131.3000000000002 1121.9 74 1083.8 41.4000000000001S988.4 13.2 955.8 51.3000000000002C954.1 53.2000000000003 952.6 55.3000000000002 951.1 57.3000000000002L524.8 587C513.7 603.3 508.4 622.9 509.7 642.5L509.7 642.5L509.7 642.5zM101.9 642.5C101.9 663.1 109.1 683.2 122.3 699L564.2 1228.5C595.4000000000001 1266 651.1 1271.2 688.6 1240S731.3000000000001 1153.1 700.1 1115.6L700.1 1115.6L304.7 642.5L685.9 169.4000000000001C718.5 131.3000000000002 714.1 74 676 41.4000000000001C637.9 8.8000000000002 580.6 13.2 548 51.3000000000002C546.3 53.2000000000003 544.8 55.3000000000002 543.3 57.3000000000002L117 587C105.9 603.3 100.6 622.9 101.9 642.5L101.9 642.5L101.9 642.5z" />
    <glyph glyph-name="chevron-left-medium"
      unicode="&#xEA04;"
      horiz-adv-x="1230" d="M305.8 642.5C305.8 663.1 313 683.2 326.2 699L768.0999999999999 1228.5C799.3 1266 855 1271.2 892.5 1240S935.2 1153.1 904 1115.6L904 1115.6L508.6 642.5L889.8 169.4000000000001C922.4 131.3000000000002 918 74 879.9 41.4000000000001C841.8 8.8000000000002 784.5 13.2 751.9 51.3000000000002C750.1999999999999 53.2000000000003 748.6999999999999 55.3000000000002 747.1999999999999 57.3000000000002L320.9 587C309.8 603.3 304.5 622.9 305.8 642.5L305.8 642.5L305.8 642.5z" />
    <glyph glyph-name="chevron-right-double-medium"
      unicode="&#xEA05;"
      horiz-adv-x="1230" d="M720.3 637.5C720.3 616.9 713.0999999999999 596.8 699.9 581L258 51.5C226.8 14 171.1 8.8 133.6 40S90.9 126.9000000000001 122.1 164.4000000000001L122.1 164.4000000000001L517.5 637.5000000000001L136.3 1110.6C103.7 1148.7 108.1 1206 146.2 1238.6C184.3 1271.2 241.6 1266.8 274.2000000000001 1228.7C275.9000000000001 1226.8000000000002 277.4000000000001 1224.7 278.9000000000001 1222.7L705.2 693C716.3 676.7 721.6 657.1 720.3 637.5L720.3 637.5L720.3 637.5zM1128.1 637.5C1128.1 616.9 1120.8999999999999 596.8 1107.6999999999998 581L665.7999999999998 51.5C634.5999999999998 14 578.8999999999999 8.8 541.3999999999999 40S498.6999999999999 126.9000000000001 529.8999999999999 164.4000000000001L529.8999999999999 164.4000000000001L925.2999999999998 637.5000000000001L544.1 1110.6C511.5 1148.7 515.9 1206 554 1238.6C592.1 1271.2 649.4 1266.8 682 1228.7C683.7 1226.8000000000002 685.2 1224.7 686.7 1222.7L1113 693C1124.1 676.7 1129.4 657.1 1128.1 637.5L1128.1 637.5L1128.1 637.5z" />
    <glyph glyph-name="chevron-right-medium"
      unicode="&#xEA06;"
      horiz-adv-x="1230" d="M924.2 637.5C924.2 616.9 917 596.8 903.8 581L461.9000000000001 51.5C430.7000000000001 14 375.0000000000001 8.8 337.5000000000001 40S294.8000000000002 126.9000000000001 326.0000000000001 164.4000000000001L326.0000000000001 164.4000000000001L721.4000000000001 637.5000000000001L340.2 1110.6C307.6 1148.7 312 1206 350.1 1238.6S445.5 1266.8 478.1 1228.7C479.8 1226.8000000000002 481.3 1224.7 482.8 1222.7L909.1 693C920.2 676.7 925.5 657.1 924.1 637.4V637.5H924.2z" />
    <glyph glyph-name="cross"
      unicode="&#xEA07;"
      horiz-adv-x="1310" d="M851.46 638.84L1276.276 1063.656C1325.026 1112.406 1318.0610000000001 1193.656 1262.348 1247.048C1208.955 1300.441 1125.383 1307.404 1078.955 1260.976L654.139 836.16L229.321 1260.976C180.572 1309.726 99.322 1302.762 45.929 1247.048C-7.464 1193.656 -14.427 1110.085 32 1063.656L456.818 638.84L34.323 216.3440000000001C-14.427 167.595 -7.463 86.3440000000001 48.251 32.952C103.965 -20.441 185.215 -27.404 231.643 19.0239999999999L654.139 441.5189999999998L1076.636 19.0239999999999C1125.384 -29.7260000000001 1206.636 -22.7620000000002 1260.029 32.952C1313.42 86.3440000000001 1320.384 169.916 1273.957 216.3440000000001L851.46 638.84z" />
    <glyph glyph-name="facebook"
      unicode="&#xEA08;"
      horiz-adv-x="725" d="M448.95 31.05H218.55C194.25 31.05 174.55 50.75 174.55 75.05V492.05H45.65C21.35 492.05 1.65 511.75 1.65 536.05V766.55C1.65 790.8499999999999 21.35 810.55 45.65 810.55H174.45V939.35C174.45 1122.45 323.4500000000001 1271.45 506.5500000000001 1271.45H679.25C703.55 1271.45 723.25 1251.75 723.25 1227.45V996.95C723.25 972.65 703.55 952.95 679.25 952.95H506.65C499.15 952.95 493.05 946.75 493.05 939.25V810.55H679.3499999999999C692.8499999999999 810.55 705.7499999999999 804.3499999999999 714.05 793.65C722.4499999999999 782.9499999999999 725.3499999999999 769.05 722.05 755.85L664.55 525.35C659.65 505.75 642.05 492.05 621.8499999999999 492.05H492.95V75.05C492.95 50.75 473.25 31.05 448.95 31.05zM262.55 119.05H405.05V536.05C405.05 560.3499999999999 424.75 580.05 449.05 580.05H587.55L623.05 722.55H449.05C424.75 722.55 405.05 742.25 405.05 766.55V939.35C405.15 995.35 450.7499999999999 1040.85 506.65 1040.95H635.3499999999999V1183.45H506.65C372.05 1183.45 262.55 1073.95 262.55 939.35V766.55C262.55 742.25 242.85 722.55 218.55 722.55H89.65V580.05H218.45C242.7500000000001 580.05 262.4500000000001 560.3499999999999 262.4500000000001 536.05V119.05z" />
    <glyph glyph-name="instagram"
      unicode="&#xEA09;"
      horiz-adv-x="1250" d="M911.45 24.1500000000001H338.55C156.85 24.1500000000001 9.15 171.9500000000001 9.15 353.5500000000002V926.45C9.15 1108.0500000000002 156.85 1255.85 338.55 1255.85H911.45C1093.15 1255.85 1240.85 1108.05 1240.85 926.45V353.5500000000002C1240.85 171.9500000000001 1093.05 24.1500000000001 911.45 24.1500000000001zM338.55 1169.95C204.25 1169.95 95.05 1060.75 95.05 926.45V353.5500000000002C95.05 219.3500000000001 204.25 110.0500000000002 338.55 110.0500000000002H911.45C1045.75 110.0500000000002 1154.95 219.2500000000002 1154.95 353.5500000000002V926.45C1154.95 1060.65 1045.75 1169.95 911.45 1169.95H338.55zM627.45 359.8499999999999C494.85 359.8499999999999 378.35 457.1499999999999 358.35 592.05C347.75 663.9499999999999 365.6500000000001 735.65 408.9500000000001 794.05S515.6500000000001 890.4499999999999 587.5500000000001 901.05C614.0500000000001 905.05 640.85 905.05 667.35 901.05C786.75 883.3499999999999 878.95 791.25 896.6500000000001 671.75L896.6500000000001 671.75C918.65 523.35 815.8500000000001 384.75 667.45 362.6500000000001C653.95 360.8499999999999 640.65 359.8499999999999 627.45 359.8499999999999zM627.55 818.15C618.3499999999999 818.15 609.25 817.4499999999999 600.25 816.15C551.05 808.85 507.65 782.85 478.05 742.85C448.35 702.95 436.05 653.85 443.45 604.6500000000001C458.45 503.1500000000001 553.15 432.9500000000001 654.95 447.75C756.45 462.8499999999999 826.85 557.75 811.75 659.25L811.75 659.25C799.65 740.95 736.65 804.05 654.95 816.15C645.75 817.55 636.65 818.15 627.55 818.15zM997.95 944.55C997.95 976.15 972.35 1001.85 940.65 1001.85H940.05C908.35 1001.85 883.0500000000001 976.1499999999997 883.0500000000001 944.55C883.0500000000001 912.95 908.95 887.25 940.65 887.25S997.95 912.95 997.95 944.55z" />
    <glyph glyph-name="linkedin"
      unicode="&#xEA0A;"
      horiz-adv-x="1250" d="M1118.4 32.3H131.4000000000001C68.5000000000001 32.3 17.3000000000001 83.8999999999999 17.3000000000001 147.3999999999999V1132.6C17.3000000000001 1196.1 68.5000000000001 1247.7 131.4000000000001 1247.7H1118.4C1181.5 1247.7 1232.7 1196.1 1232.7 1132.6V147.4000000000001C1232.7 83.9000000000001 1181.4 32.3 1118.4 32.3zM131.4 1183.5C103.9 1183.5 81.5 1160.7 81.5 1132.6V147.4000000000001C81.5 119.3000000000002 103.9 96.5 131.4 96.5H1118.4C1146 96.5 1168.5 119.3 1168.5 147.4000000000001V1132.6C1168.5 1160.7 1146 1183.5 1118.4 1183.5H131.4zM1036.9 196.7000000000001H866.3C848.5999999999999 196.7000000000001 834.1999999999999 211.1000000000001 834.1999999999999 228.8V496C834.1999999999999 585.2 821.9999999999999 609.6 777.6999999999999 609.6C733.0999999999999 609.6 707.3 591.8000000000001 707.3 500.5999999999999V228.6999999999998C707.3 210.9999999999998 692.9 196.5999999999999 675.1999999999999 196.5999999999999H504.5C486.8 196.5999999999999 472.4 211 472.4 228.6999999999998V778.2C472.4 795.9000000000001 486.8 810.3000000000001 504.5 810.3000000000001H668.2C684.4000000000001 810.3000000000001 697.8000000000001 798.3000000000001 700 782.8000000000001C733.1 806.6 777.5 824.0000000000001 832.1 824.0000000000001C923.2 824.0000000000001 988.6 793.6000000000001 1026.4 733.6000000000001C1055.9 686.9000000000001 1069 624.1000000000001 1069 530.0000000000001V228.8000000000002C1069 211.0999999999999 1054.7 196.7000000000001 1036.9 196.7000000000001zM898.4 261H1004.8V530C1004.8 610.1 994.4 663.9 972.1 699.3C937.8999999999997 753.5 875.8 759.6999999999999 832.0999999999999 759.6999999999999C788.0999999999999 759.6999999999999 726.8 740.9999999999999 698.8999999999999 688.0999999999999C693.2999999999998 677.5999999999999 682.3999999999999 670.9999999999999 670.4999999999999 670.9999999999999H668.1999999999999C650.4999999999999 670.9999999999999 636.0999999999999 685.3999999999999 636.0999999999999 703.0999999999999V745.9999999999999H536.6999999999999V261H643V500.7C643 534.8000000000001 645.5 578.4000000000001 664.9 613.6C680.1 641.1 711.9 673.9 777.6 673.9C829.7 673.9 866.7 649.9 884.6 604.6C898.4 569.6 898.4 527.1 898.4 496.0999999999999V261zM397.6 196.7000000000001H226.7C209 196.7000000000001 194.6 211.1000000000001 194.6 228.8V778.2C194.6 795.9000000000001 209 810.3000000000001 226.7 810.3000000000001H397.6C415.3 810.3000000000001 429.7000000000001 795.9000000000001 429.7000000000001 778.2V228.8000000000002C429.7 211.0999999999999 415.3 196.7000000000001 397.6 196.7000000000001zM258.8 261H365.4V746.1H258.8V261zM312 821.2C239.8 821.2 181 880 181 952.2S239.8 1083.3 312 1083.3S443.1 1024.5 443.1 952.2S384.3 821.2 312 821.2zM312 1019C275.2 1019 245.2 989 245.2 952.2C245.2 915.4 275.2 885.4000000000001 312 885.4000000000001S378.8 915.4 378.8 952.2C378.8 989.1 348.9 1019 312 1019z" />
    <glyph glyph-name="mail"
      unicode="&#xEA0B;"
      horiz-adv-x="1250" d="M1245.4 991.3C1245.4 991.6 1245.4 991.7 1245.4 992C1244.7 1075.3 1176.6000000000001 1143.2 1093 1143.5H157H156.9C73.5 1143.2 5.4 1075.5 4.7 992.1C4.7 991.8 4.7 991.6 4.7 991.3C4.7 991.2 4.7 991.1 4.7 991.0000000000002V289C5 205.3 73.3 136.9000000000001 157 136.8H1093.1000000000001C1176.8000000000002 137.0999999999999 1245.2 205.3999999999999 1245.4 289.0999999999999V991.2C1245.4 991.2 1245.4 991.2 1245.4 991.3zM157 1072.7H1092.9C1132 1072.6 1164.8000000000002 1044.8 1172.7 1008.1L625 624.7L77.2 1008.1C85.1 1044.8 117.9 1072.5 157 1072.7zM1093 207.3H157C112.1 207.5 75.4 244.0999999999999 75.3 288.8999999999999V923.1L604.6999999999999 552.5C610.8 548.3 617.9 546.1 624.9999999999999 546.1C632.0999999999999 546.1 639.1999999999999 548.2 645.2999999999998 552.5L1174.6999999999998 923.1V289.0999999999999C1174.5 244.2000000000001 1137.8 207.5 1093 207.3z" />
    <glyph glyph-name="more"
      unicode="&#xEA0C;"
      horiz-adv-x="1290" d="M1253.5 666.1H671.1V1248.5C671.1 1248.5 671.1 1248.5 671.1 1248.5C671.1 1262.9 659.4 1274.6 645 1274.5C630.6 1274.5 618.9 1262.8 618.9 1248.4V666H36.5C22.1 666 10.4 654.3 10.4 639.9C10.4 639.9 10.4 639.9 10.4 639.9C10.4 625.5 22.1 613.8 36.5 613.8H618.9V31.4000000000001C618.9 31.4000000000001 618.9 31.4000000000001 618.9 31.4000000000001C618.9 17 630.6 5.3000000000002 645 5.3000000000002C645 5.3000000000002 645 5.3000000000002 645.1 5.3000000000002C659.5 5.3000000000002 671.2 17.0000000000002 671.1 31.4000000000001V613.9H1253.5C1253.5 613.9 1253.5 613.9 1253.6 613.9C1268 613.9 1279.6999999999998 625.6 1279.6 640C1279.6 640 1279.6 640 1279.6 640C1279.5 654.4 1267.9 666.1 1253.5 666.1z" />
    <glyph glyph-name="pin"
      unicode="&#xEA0D;"
      horiz-adv-x="980" d="M490.1 1286.9C223.7 1286.5 7.9 1070.6 7.7 804.3C7.7 407.8 442.1 20.6999999999998 460.5 4.4000000000001C477.4 -10.5 502.7 -10.5 519.6 4.4000000000001C538.1 20.7 972.4 407.8000000000002 972.4 804.3000000000001C972.1 1070.5 756.4 1286.4 490.1 1286.9zM490.1 99.0999999999999C394 192.2000000000001 97 504.3 97 804.1C97.3 1021.2 273.5 1197 490.6 1196.7C707.3 1196.4 882.9000000000001 1020.8 883.2 804.0999999999999C883.5 504.1999999999998 586 192 490.1 98.8999999999999V99.0999999999999zM490.1 1029.1C365.9000000000001 1029.9 264.6 929.9 263.8 805.7C263 681.6 363 580.2 487.1 579.4C611.2 578.6 712.6 678.5 713.4000000000001 802.7C713.4000000000001 803.2 713.4000000000001 803.7 713.4000000000001 804.2C713.6000000000001 927.9 613.7 1028.4 490.0000000000001 1029V1029.1zM490.1 668.8C415.3 668 353.9000000000001 728 353.1 802.8S412.3 939 487.1 939.8S623.3 880.5999999999999 624.1 805.8C624.1 805.8 624.1 805.8 624.1 805.8C624.1 805.3 624.1 804.8 624.1 804.3C624.4 729.9 564.5 669.3 490.1 668.8z" />
    <glyph glyph-name="pinterest"
      unicode="&#xEA0E;"
      horiz-adv-x="1344" d="M714 1513.25C354.9000000000001 1513.25 0 1273.85 0 886.4C0 640 138.6 500 222.6 500C257.25 500 277.2 596.6000000000001 277.2 623.8999999999999C277.2 656.4499999999999 194.25 725.7499999999999 194.25 861.1999999999999C194.25 1142.6 408.45 1342.1 685.65 1342.1C924 1342.1 1100.3999999999999 1206.65 1100.3999999999999 957.8C1100.3999999999999 771.95 1025.85 423.3500000000002 784.3499999999999 423.3500000000002C697.1999999999998 423.3500000000002 622.6499999999999 486.3500000000001 622.6499999999999 576.6500000000001C622.6499999999999 708.9500000000002 715.05 837.0500000000002 715.05 973.5500000000002C715.05 1205.2500000000002 386.3999999999999 1163.2500000000002 386.3999999999999 883.2500000000001C386.3999999999999 824.45 393.7499999999999 759.3500000000001 419.9999999999999 705.8000000000001C371.7 497.9000000000001 272.9999999999999 188.1499999999999 272.9999999999999 -26.0499999999997C272.9999999999999 -92.1999999999998 282.45 -157.2999999999997 288.7499999999999 -223.4499999999998C300.6499999999999 -236.7499999999997 294.7 -235.3499999999997 312.8999999999999 -228.6999999999998C489.3 12.8000000000002 482.9999999999999 60.0500000000002 562.8 376.1000000000004C605.85 294.2000000000003 717.1499999999999 250.1000000000004 805.3499999999999 250.1000000000004C1177.0499999999997 250.1000000000004 1344 612.3500000000003 1344 938.9000000000004C1344 1286.45 1043.7 1513.25 714 1513.25z" />
    <glyph glyph-name="tiktok"
      unicode="&#xEA0F;"
      horiz-adv-x="1568" d="M1568 801.315A735.21 735.21 0 0 0 1138.305 938.69V313.1700000000001A568.9250000000001 568.9250000000001 0 1 0 647.5 876.915V562.3000000000001A261.17 261.17 0 1 1 830.305 313.1700000000001V1536L1138.305 1536A424.1300000000001 424.1300000000001 0 0 1 1144.815 1458.405H1144.815A427.63 427.63 0 0 1 1333.5 1177.635A425.0050000000001 425.0050000000001 0 0 1 1568 1107.145z" />
    <glyph glyph-name="twitter"
      unicode="&#xEA10;"
      horiz-adv-x="1330" d="M454.15 93.8710000000001C310.25 93.8710000000001 162.85 132.1710000000001 25.05 208.7710000000002C9.05 217.6710000000003 1.25 236.3710000000001 6.15 253.9710000000003C11.05 271.5710000000002 26.35 284.3710000000003 45.75 282.7710000000002C155.45 278.4710000000003 261.65 302.5710000000002 357.25 352.9710000000003C-94.8500000000001 605.2710000000002 118.55 1100.7710000000002 120.9499999999999 1105.9710000000002C126.7499999999999 1118.9710000000002 139.0499999999999 1127.871 153.25 1129.2710000000002C166.8499999999999 1130.5710000000004 181.15 1124.2710000000002 189.3499999999999 1112.6710000000003C290.55 968.6710000000002 451.55 881.2710000000002 625.7499999999999 874.0710000000003V890.7710000000003C624.6499999999999 976.2710000000002 661.1499999999999 1057.9710000000002 726.0499999999998 1114.3710000000003C840.8499999999998 1214.3710000000003 1012.2499999999998 1208.5710000000004 1120.1499999999999 1105.2710000000002C1171.05 1122.8710000000003 1219.05 1147.5710000000004 1263.1499999999999 1178.6710000000003C1276.6499999999999 1188.1710000000003 1294.6499999999999 1188.2710000000002 1308.1499999999999 1179.0710000000004C1321.7499999999998 1169.7710000000002 1328.2499999999998 1153.0710000000004 1324.35 1137.0710000000004C1305.1499999999999 1057.8710000000003 1265.9499999999998 985.2710000000002 1210.6499999999999 925.8710000000004C1211.9499999999998 914.8710000000004 1212.6499999999999 903.7710000000002 1212.6499999999999 892.5710000000004C1212.6499999999999 589.2710000000004 1078.6499999999999 336.5710000000004 845.0499999999998 199.0710000000004C725.65 128.8710000000001 591.55 93.8710000000001 454.15 93.8710000000001zM202.55 215.771C409.15 145.0709999999999 626.05 161.971 804.8499999999999 267.1710000000001C1013.6499999999997 390.0710000000002 1133.4499999999998 617.971 1133.4499999999998 892.471C1133.35 905.671 1132.1499999999999 918.971 1129.6499999999999 931.771C1127.1499999999999 944.771 1131.2499999999998 958.171 1140.7499999999998 967.371C1167.3499999999997 993.671 1190.0499999999997 1023.471 1208.1499999999999 1055.771C1179.7499999999998 1042.471 1150.2499999999998 1031.271 1119.9499999999998 1022.171C1105.1499999999999 1017.771 1088.9499999999998 1022.371 1078.85 1034.071C1001.55 1122.8709999999999 866.55 1131.971 777.8499999999999 1054.771C730.55 1013.571 703.8499999999999 953.9709999999998 704.7499999999999 891.1709999999999V834.1709999999999C704.7499999999999 812.771 687.6499999999999 795.271 666.2499999999999 794.6709999999999C476.5499999999999 789.371 295.4499999999999 868.771 170.6499999999999 1009.071C131.75 872.3710000000001 88.95 555.071 455.25 392.271C468.35 386.471 477.25 373.971 478.55 359.6710000000001C479.85 345.3710000000001 473.25 331.5710000000002 461.35 323.471C382.15 269.771 294.55 233.471 202.55 215.771z" />
    <glyph glyph-name="viadeo"
      unicode="&#xEA11;"
      horiz-adv-x="1568" d="M966.7 1009.25V1006.8C904.05 1190.9 817.6 1368.7 718.9 1536C870.4499999999999 1433.8 953.3999999999997 1186 966.7 1009.25zM1081.1499999999999 583.3000000000001C1107.75 519.6000000000001 1119.6499999999999 452.05 1119.6499999999999 383.8C1119.6499999999999 111.8500000000001 917.35 -109.7 637.3499999999999 -104.1000000000001L650.6499999999999 -103.0499999999999C910.35 60.3999999999999 1033.2 312.0499999999998 1033.2 614.7999999999998C1033.2 748.1499999999999 1010.45 880.4499999999998 967.05 1006.7999999999998C970.55 965.85 970.55 923.85 970.55 882.8999999999999C970.55 561.5999999999999 907.2 37.2999999999997 562.45 -97.1000000000001C332.5 -57.2 172.9 143 172.9 383.8C172.9 648.4 373.8 881.8500000000001 646.8000000000001 881.8500000000001C705.6000000000001 881.8500000000001 764.75 871.0000000000001 818.65 848.2500000000001C824.6 901.1000000000003 841.4 952.9 865.5500000000001 999.8C795.9 1025 721.3500000000001 1037.25 646.8000000000001 1037.25C81.55 1037.25 -188.6499999999999 351.6000000000002 192.15 -60.7C429.8000000000001 -321.7999999999997 864.15 -319.3500000000001 1101.4500000000003 -60.7C1299.5500000000002 153.8500000000001 1314.6000000000001 437.7000000000003 1228.8500000000001 642.8000000000001C1184.4 614.8000000000001 1134 594.1500000000001 1081.15 583.3000000000001zM1463.3500000000001 1495.05C1354.8500000000001 1262.3 1178.8 1329.85 1058.05 1214.7C1014.65 1172.7 985.95 1095.7 985.95 1037.9499999999998C985.95 988.6 1001.7 943.1 1027.95 902.1499999999997C1193.85 940.6499999999997 1372 1063.1499999999999 1441.6499999999999 1219.6C1439.2 1200.35 1424.85 1169.1999999999998 1416.45 1152.3999999999999C1345.3999999999999 1027.4499999999998 1190.3500000000001 922.8 1067.5 855.2499999999999C1119.3 804.8499999999999 1185.45 764.9499999999998 1260 764.9499999999998C1536.5 764.9499999999998 1645.3500000000001 1236.0499999999997 1463.3500000000001 1495.0499999999997z" />
    <glyph glyph-name="vimeo"
      unicode="&#xEA12;"
      horiz-adv-x="1568" d="M1411.2 1424H156.8C70.35 1424 0 1353.65 0 1267.2V12.8C0 -73.6499999999999 70.35 -144 156.8 -144H1411.2C1497.6499999999999 -144 1568 -73.6499999999999 1568 12.8V1267.2C1568 1353.65 1497.6499999999999 1424 1411.2 1424zM1319.5 903.2C1314.6000000000001 792.9499999999999 1237.6000000000001 641.75 1088.5 450.2999999999998C934.5 250.0999999999999 803.9499999999999 149.9999999999998 697.5500000000001 149.9999999999998C631.4 149.9999999999998 575.75 210.8999999999996 529.9 333.0499999999998C440.6500000000001 659.5999999999999 402.5 851.0499999999998 329 851.0499999999998C320.6 851.0499999999998 290.85 833.1999999999998 240.1 797.8499999999999L186.9 866.4499999999998C317.45 981.2499999999998 442.05 1108.6499999999999 520.1 1115.6499999999999C608.3 1124.05 662.5500000000001 1063.85 682.85 934.6999999999998C755.3 475.5 787.5 406.1999999999998 919.45 614.0999999999999C966.7 688.9999999999999 992.25 746.0499999999998 995.75 785.2499999999999C1008 901.45 905.1000000000003 893.3999999999999 835.4499999999999 863.6499999999999C891.1 1046 997.5 1134.55 1154.6499999999999 1129.6499999999999C1271.2 1126.5 1326.1499999999999 1050.8999999999999 1319.5 903.2z" />
    <glyph glyph-name="weibo"
      unicode="&#xEA13;"
      horiz-adv-x="1792" d="M1424.5 914.4C1451.1000000000001 998.4 1377.6000000000001 1078.1999999999998 1293.6000000000001 1060.3500000000001C1216.6000000000001 1043.5500000000002 1192.8 1158.7 1268.75 1175.15C1444.1000000000001 1213.3000000000002 1591.8 1045.3000000000002 1536.5 878.3500000000001C1512.7 804.1500000000001 1400.7 840.5500000000001 1424.5 914.4zM751.8000000000001 -27.45C379.75 -27.45 0 152.4500000000001 0 449.6000000000002C0 604.6500000000001 98 783.5000000000001 267.05 952.55C616 1301.5 978.25 1305.7 874.65 972.5C860.65 926.65 917.7 952.55 917.7 951.5C1195.95 1069.1 1409.45 1010.3 1316.7 771.6C1303.75 738.6999999999999 1320.55 733.4499999999999 1345.75 725.75C1820.7000000000005 577.6999999999999 1467.55 -27.45 751.8000000000001 -27.45zM1254.75 484.6000000000001C1235.8500000000001 679.5500000000001 980 813.6000000000001 682.85 784.5500000000001C386.05 754.45 162.05 573.5 180.95 378.55S455.6999999999999 49.55 752.85 78.6000000000001C1049.6499999999999 108.7000000000003 1273.6499999999999 289.6500000000001 1254.75 484.6000000000001zM1217.6499999999999 1413.15C1127 1393.55 1158.85 1260.1999999999998 1246.7 1279.1C1499.75 1332.3 1718.5 1094.3 1637.6499999999999 845.1C1611.75 760.4 1739.5 715.6 1768.5499999999997 803.1C1880.2 1152.4 1575.6999999999998 1488.75 1217.6499999999999 1413.15zM942.8999999999997 324.6499999999999C883.05 188.8499999999999 709.0999999999999 114.6499999999999 561.05 162.5999999999999C418.25 208.4500000000001 358.05 349.4999999999998 420 476.5499999999997C481.9499999999999 600.4499999999998 640.85 670.4499999999998 781.8999999999999 634.3999999999999C928.8999999999997 596.5999999999999 1002.75 458.7 942.8999999999997 324.6499999999999zM640.8499999999999 429.6499999999999C595.6999999999998 448.5499999999998 535.8499999999999 428.5999999999999 507.8499999999999 384.5C478.7999999999998 339.3500000000002 492.7999999999998 286.5 537.9499999999998 265.5C583.7999999999998 244.5 645.7499999999999 264.4500000000001 674.7999999999998 310.6499999999999C702.7999999999998 356.5 687.7499999999998 409.7000000000001 640.8499999999999 429.6499999999999zM754.9499999999998 476.5499999999997C737.0999999999999 482.4999999999998 715.0499999999998 474.4499999999998 704.8999999999999 457.6499999999999C694.7499999999998 439.7999999999998 699.9999999999998 420.5499999999998 717.8499999999998 412.5C735.6999999999998 405.5 758.7999999999997 413.55 768.9499999999998 431.3999999999999C778.7499999999998 449.5999999999999 772.7999999999997 469.5499999999997 754.9499999999998 476.5499999999997z" />
    <glyph glyph-name="youtube"
      unicode="&#xEA14;"
      horiz-adv-x="1550" d="M774.95 101.3499999999999C756.35 101.3499999999999 317.2500000000001 101.6499999999999 201.0500000000001 132.3499999999999C127.4500000000001 151.9499999999998 68.5500000000001 209.55 47.1500000000001 282.6499999999999C25.1500000000001 402.2499999999998 14.8500000000001 520.8499999999999 15.5500000000001 638.8499999999999C14.9500000000001 755.55 25.3500000000001 873.2499999999999 46.2500000000001 988.2499999999998C66.2500000000001 1066.55 125.1500000000001 1126.4499999999998 200.5500000000001 1147.35C317.0500000000001 1178.1499999999999 756.2500000000001 1178.55 774.85 1178.55S1232.15 1178.25 1347.95 1150.25C1424.55 1129.1499999999999 1483.45 1069.1499999999999 1502.95 993.4499999999998C1503.15 992.5499999999998 1503.3500000000001 991.7499999999998 1503.55 990.8499999999998C1524.75 874.6499999999997 1535.05 756.1499999999999 1534.35 638.4499999999998C1534.75 522.5499999999998 1524.4499999999998 405.7499999999998 1503.6499999999999 291.6499999999999C1483.55 213.3499999999999 1424.6499999999999 153.3499999999999 1349.35 132.55C1232.75 101.75 793.55 101.3499999999999 774.95 101.3499999999999zM774.85 1103.35C650.5500000000001 1103.35 308.75 1098.25 220.15 1074.85C171.15 1061.25 132.45 1021.85 119.75 972.25C100.25 864.45 90.35 751.45 90.85 638.95C90.15 525.1500000000001 100.05 411.25 120.35 300.0500000000002C133.45 255.8500000000002 172.05 218.0500000000002 220.35 205.1500000000001C308.95 181.75 650.75 176.6500000000001 774.95 176.6500000000001C899.25 176.6500000000001 1241.0500000000002 181.75 1329.65 205.1500000000001C1378.65 218.6500000000001 1417.3500000000001 258.0500000000002 1430.15 307.75C1449.5500000000002 414.6500000000001 1459.5500000000002 526.85 1459.0500000000002 638.45C1459.7500000000002 751.35 1449.8500000000001 864.75 1429.7500000000002 975.85C1416.6500000000003 1024.95 1378.2500000000002 1063.75 1329.1500000000003 1077.35C1244.55 1097.85 929.45 1103.35 774.85 1103.35zM634.85 432.1500000000001L997.95 638.6500000000001L634.85 845.15V432.1500000000001z" />
  </font>
</defs>
</svg>
